[HD] Zátah: Vykoupení / The Raid: Redemption (2011)(CZ/ID)[1080pHD]

The Raid: Redemption [UNCUT] (2011-1080p-BD-x264-AVC-AC3-DTS-DualDUB) CHD/C75

ObsahSpeciální policejní oddíl má za úkol proniknout do p?ísn? st?eženého ?inžovního domu na p?edm?stí Jakarty a zajmout šéfa gangu, který obývá horní patro. Tým je však brzy prozrazen a z domovního telefonu se ozve lakonický šéf?v rozkaz: Kdo z nájemník? pom?že zabít policisty, bude už navždy bydlet zadarmo. Malé skupince, která p?ežije následující krvavou láze?, tak nezbude nic jiného než se vydat sm?rem vzh?ru, jedinou cestou, jež jim m?že zajistit p?ežití. Po nezbytné premise následuje to, co ze snímku d?lá jeden z nejlepších ak?ních film? posledního desetiletí: explicitní adrenalinová akce s dokonale propracovanými choreografiemi a brutální poezií násilí v dynamicky snímaných soubojích na hranici fyzických možností, které p?ekra?ují všechny pomyslné meze toho, co jsme v asijských filmech dosud vid?li. Hlavní hrdina, policista Rama v podání Ika Uwaise, jenž p?edvedl své schopnosti již v p?edchozím režisérov? snímku Cesta bojovníka (2009), se tak bude muset probojovat až k samotnému vrcholu zlo?ineckého ?et?zce, a to za pomoci všeho, co mu p?ijde pod ruku.

Format: Matroska at 14.3 Mbps

Length: 10.1 GiB for 1h 40mn 45s 238ms

Video #0: AVC at 10.9 Mbps

Aspect: 1920 x 1036 (1.853) at 24.000 fps

Audio #0: AC-3 at 448 Kbps

Infos: 6 channels, 48.0 KHz

Language: cs

Audio #1: DTS at 1 509 Kbps

Infos: 6 channels, 48.0 KHz

Language: cs

Audio #2: DTS at 1 509 Kbps

Infos: 6 channels, 48.0 KHz

Language: id

Text #0: UTF-8

Language: cs

Text #1: UTF-8

Language: en

Detailní MIGeneral

Unique ID: 212079812272057130791670346146010321531 (0x9F8D160B0233555AB2CDA5D241BB527B)

Complete name: The Raid; Redemption (2011-1080p-BD-x264-AVC-AC3-DTS-DualDUB) CHD-C75.mkv

Format: Matroska

Format version: Version 4 / Version 2

File size: 10.1 GiB

Duration: 1h 40mn

Overall bit rate: 14.3 Mbps

Movie name: The.Raid.Redemption.2011.BluRay.1080p.DTS.x264-CHD/C75

Encoded date: UTC 2015-03-06 19:49:38

Writing application: mkvmerge v7.7.0 ('Six Voices' ) 64bit built on Feb 28 2015 23:39:33

Writing library: libebml v1.3.1 + libmatroska v1.4.2

DURATION: 01:40:45.238000000

NUMBER_OF_FRAMES: 566741

NUMBER_OF_BYTES: 1140282892

_STATISTICS_WRITING_APP: mkvmerge v7.7.0 ('Six Voices' ) 64bit built on Feb 28 2015 23:39:33

_STATISTICS_WRITING_DATE_UTC: 2015-03-06 19:49:38

_STATISTICS_TAGS: BPS DURATION NUMBER_OF_FRAMES NUMBER_OF_BYTES

Video

ID: 1

Format: AVC

Format/Info: Advanced Video Codec

Format profile: [email protected]

Format settings, CABAC: Yes

Format settings, ReFrames: 4 frames

Codec ID: V_MPEG4/ISO/AVC

Duration: 1h 40mn

Bit rate: 10.9 Mbps

Width: 1 920 pixels

Height: 1 036 pixels

Display aspect ratio: 1.85:1

Frame rate mode: Constant

Frame rate: 24.000 fps

Color space: YUV

Chroma subsampling: 4:2:0

Bit depth: 8 bits

Scan type: Progressive

Bits/(Pixel*Frame): 0.228

Stream size: 7.44 GiB (74%)

Title: The.Raid.Redemption.2011.BluRay.1080p.DTS.x264-CHD

Writing library: x264 core 120 r2146 bcd41db

Encoding settings: cabac=1 / ref=4 / deblock=1:-3:-3 / analyse=0×3:0×113 / me=umh / subme=10 / psy=1 / psy_rd=1.05:0.10 / mixed_ref=1 / me_range=32 / chroma_me=1 / trellis=2 / 8x8dct=1 / cqm=0 / deadzone=21,11 / fast_pskip=0 / chroma_qp_offset=-2 / threads=8 / sliced_threads=0 / nr=0 / decimate=1 / interlaced=0 / bluray_compat=0 / constrained_intra=0 / bframes=5 / b_pyramid=2 / b_adapt=2 / b_bias=0 / direct=3 / weightb=1 / open_gop=0 / weightp=2 / keyint=250 / keyint_min=24 / scenecut=40 / intra_refresh=0 / rc=2pass / mbtree=0 / bitrate=10866 / ratetol=1.0 / qcomp=0.70 / qpmin=0 / qpmax=69 / qpstep=4 / cplxblur=20.0 / qblur=0.5 / ip_ratio=1.40 / pb_ratio=1.30 / aq=2:1.00

Language: Indonesian

Default: No

Forced: No

DURATION: 01:40:45.199000000

NUMBER_OF_FRAMES: 145085

NUMBER_OF_BYTES: 8202370632

_STATISTICS_WRITING_APP: mkvmerge v7.7.0 ('Six Voices' ) 64bit built on Feb 28 2015 23:39:33

_STATISTICS_WRITING_DATE_UTC: 2015-03-06 19:49:38

_STATISTICS_TAGS: BPS DURATION NUMBER_OF_FRAMES NUMBER_OF_BYTES

Audio #1

ID: 2

Format: AC-3

Format/Info: Audio Coding 3

Mode extension: CM (complete main)

Format settings, Endianness: Big

Codec ID: A_AC3

Duration: 1h 40mn

Bit rate mode: Constant

Bit rate: 448 Kbps

Channel(s): 6 channels

Channel positions: Front: L C R, Side: L R, LFE

Sampling rate: 48.0 KHz

Bit depth: 16 bits

Compression mode: Lossy

Stream size: 323 MiB (3%)

Title: DD 5.1 @ 448 kbps | TV Prima COOL | sync C75

Language: Czech

Default: Yes

Forced: No

Audio #2

ID: 3

Format: DTS

Format/Info: Digital Theater Systems

Mode: 16

Format settings, Endianness: Big

Codec ID: A_DTS

Duration: 1h 40mn

Bit rate mode: Constant

Bit rate: 1 509 Kbps

Channel(s): 6 channels

Channel positions: Front: L C R, Side: L R, LFE

Sampling rate: 48.0 KHz

Bit depth: 24 bits

Compression mode: Lossy

Stream size: 1.06 GiB (11%)

Title: DTS 5.1 @ 1536 kbps | UPMIX – originál + CZ centr | sync C75

Language: Czech

Default: No

Forced: No

Audio #3

ID: 4

Format: DTS

Format/Info: Digital Theater Systems

Mode: 16

Format settings, Endianness: Big

Codec ID: A_DTS

Duration: 1h 40mn

Bit rate mode: Constant

Bit rate: 1 509 Kbps

Channel(s): 6 channels

Channel positions: Front: L C R, Side: L R, LFE

Sampling rate: 48.0 KHz

Bit depth: 16 bits

Compression mode: Lossy

Stream size: 1.06 GiB (11%)

Title: DTS 5.1 @ 1536 kbps

Language: Indonesian

Default: No

Forced: No

Text #1

ID: 5

Format: UTF-8

Codec ID: S_TEXT/UTF8

Codec ID/Info: UTF-8 Plain Text

Language: Czech

Default: No

Forced: No

Text #2

ID: 6

Format: UTF-8

Codec ID: S_TEXT/UTF8

Codec ID/Info: UTF-8 Plain Text

Language: English

Default: No

Forced: No

Menu

00:00:00.000                             : :Chapter 1

00:15:45.166                             : :Chapter 2

00:32:45.166                             : :Chapter 3

00:49:45.166                             : :Chapter 4

01:05:54.750                             : :Chapter 5

01:23:45.166                             : :Chapter 6


Download hd.zatah.vykoupeni.the.raid.redemption.2011czid1080phd.zip
Direct Link


Download


Download hd.zatah.vykoupeni.the.raid.redemption.2011czid1080phd.zip
Mediafire


Download


Download hd.zatah.vykoupeni.the.raid.redemption.2011czid1080phd.zip
Hugefiles


Download

Both comments and pings are currently closed.

Comments are closed.